<?xml version="1.0" standalone="no"?>
<!DOCTYPE svg PUBLIC "-//W3C//DTD SVG 1.1//EN" "http://www.w3.org/Graphics/SVG/1.1/DTD/svg11.dtd" >
<svg xmlns="http://www.w3.org/2000/svg">
<metadata>Generated by IcoMoon</metadata>
<defs>
<font id="dividerShapes" horiz-adv-x="1024">
<font-face units-per-em="1024" ascent="960" descent="-64" />
<missing-glyph horiz-adv-x="1024" />
<glyph unicode="&#x20;" horiz-adv-x="512" d="" />
<glyph unicode="&#xe900;" glyph-name="zigzag" d="M1024 960h-1024v-769.935h2.573l253.427-254.065 253.427 254.065h5.146l253.427-254.065 253.427 254.065h2.573z" />
<glyph unicode="&#xe901;" glyph-name="rounded-zigzag" horiz-adv-x="1057" d="M1057.032 960h-1057.032v-794.771l194.136-192.668c38.728-38.435 101.789-38.478 140.95 0l125.259 123.076c39.117 38.435 102.383 37.958 140.932-0.689l121.393-121.699c38.718-38.815 101.66-38.646 140.209 0l191.498 191.98 2.656 794.771z" />
<glyph unicode="&#xe902;" glyph-name="angled" horiz-adv-x="1057" d="M1057.032 960h-1057.032v-1024l1057.032 327.68z" />
<glyph unicode="&#xe903;" glyph-name="inner-triangle-with-offset" horiz-adv-x="1057" d="M0 960v-891.871l410.968 272.546 646.064-387.959v1007.284z" />
<glyph unicode="&#xe904;" glyph-name="inner-triangle" horiz-adv-x="1057" d="M0 960v-1007.284l528.516 374.251 528.516-374.251v1007.284z" />
<glyph unicode="&#xe905;" glyph-name="outer-triangle" d="M0 960v-613.25l512-410.75 512 410.75v613.25z" />
<glyph unicode="&#xe906;" glyph-name="outer-triangle-with-offset" d="M0 960v-613.25l352-410.75 672 410.75v613.25z" />
<glyph unicode="&#xe907;" glyph-name="rounded-outer-triangle-with-offset" horiz-adv-x="1057" d="M0 960c0 0 0-334.774 0-633.032 171.548-196.387 299.528-348.586 299.528-348.586 35.251-41.65 101.775-52.821 148.744-24.757 0 0 332.245 196.891 608.761 373.343 0 250.387 0 633.032 0 633.032h-1057.032z" />
<glyph unicode="&#xe908;" glyph-name="rounded-outer-triangle" horiz-adv-x="1057" d="M0 960v-633.032l425.358-341.242c56.973-45.706 149.136-45.873 206.316 0l425.358 341.242v633.032h-1057.032z" />
<glyph unicode="&#xe909;" glyph-name="round" d="M0 960c0 0 0-441.5 0-645.25 56.031-199.688 254.625-378.75 512-378.75s434.719 210.531 512 378.75c0 226.938 0 645.25 0 645.25h-1024z" />
<glyph unicode="&#xe90a;" glyph-name="angled-triangles" d="M719.758-64l304.242 261.245v762.755h-1024v-762.755l173.288-261.245 317.382 241.204z" />
<glyph unicode="&#xe90b;" glyph-name="curved" d="M512 245.66c-222.521 0-425.024-129.91-512-290.349v1004.689h1024v-1024c-94.369 149.875-284.405 309.66-512 309.66z" />
<glyph unicode="&#xe90c;" glyph-name="curved-wave" d="M431.531 36.568c-156.313 149.872-318.031 49.736-431.531-95.571v1019.003h1024v-773.561c-80.5-293.121-426.177-309.311-592.469-149.872z" />
<glyph unicode="&#xe90d;" d="M1024 960h-1024v-1024l1024 327.68z" />
<glyph unicode="&#xe90e;" d="M1024 960h-1024v-858.839l1024 228.583z" />
<glyph unicode="&#xe90f;" d="M1024 960h-1024v-693.677l1024 129.486z" />
<glyph unicode="&#xe910;" glyph-name="wave" d="M330.228-64c-106.038 0-216.884 0-330.228 153.728v870.272h1024v-814.186c-277.684 113.17-393.86-209.814-693.772-209.814z" />
<glyph unicode="&#xe911;" d="M330.228-64c-106.038 0-216.884 0-330.228 153.728v870.272h1024v-814.186c-277.684 113.17-393.86-209.814-693.772-209.814z" />
<glyph unicode="&#xe912;" d="M330.228 32c-106.038 0-247.462 0-330.228 121.728v806.272h1024v-750.186c-277.684 113.17-393.86-177.814-693.772-177.814z" />
<glyph unicode="&#xe913;" d="M330.228 128c-106.038 0-246.431 0-330.228 89.728v742.272h1024v-686.186c-277.684 113.17-393.86-145.814-693.772-145.814z" />
<glyph unicode="&#xe914;" d="M1024 960h-1024v-808.047c0 0 174.326-215.953 348.16-215.953s675.84 215.953 675.84 215.953v808.047z" />
<glyph unicode="&#xe915;" d="M1024 960h-1024v-763.526c0 0 174.078-171.431 348.16-171.431s675.84 171.431 675.84 171.431v763.526z" />
<glyph unicode="&#xe916;" d="M1024 960h-1024v-719.004c0 0 173.318-126.909 348.16-126.909s675.84 126.909 675.84 126.909v719.004z" />
<glyph unicode="&#xe917;" glyph-name="wavy" d="M130.7 239.021c-81.748 0-98.966-53.365-130.7-96.043v817.021h1024v-440.868c-14.168-282.227-59.996-391.876-150.586-391.876s-126.242 173.649-227.372 173.649c-101.13 0-128.61-354.34-264.476-354.34s-169.118 292.457-250.866 292.457z" />
<glyph unicode="&#xe918;" glyph-name="spikes" d="M202.644 342.721l412.362-406.721 206.181 203.36 202.812-200.038v1020.677h-1024v-817.151z" />
<glyph unicode="&#xe919;" glyph-name="rounded-spikes" d="M134.321 275.332c37.734 37.218 98.981 37.151 136.88-0.229l275.25-271.484c37.863-37.345 98.979-37.612 136.925-0.185l69.443 68.493c37.759 37.243 99.172 37.052 136.749-0.011l134.432-132.593v1020.677h-1024v-817.151l134.321 132.483z" />
<glyph unicode="&#xe91a;" glyph-name="arrow-split" d="M676.516 96.668h347.484v863.332h-1024v-863.332h354.761l160.877-160.668z" />
<glyph unicode="&#xe91b;" glyph-name="rounded-arrow-split" d="M772.516 64.668h251.484v895.332h-1024v-895.332h258.761c114.082 0 176.439-128.668 256.877-128.668s147.846 128.668 256.877 128.668z" />
<glyph unicode="&#xe91c;" d="M0 960h1024v-879.354c-29.229 0.003-54.373 0.156-61.971 1.403-24.662-54.044-81.779-91.899-148.301-91.899-39.018 0-74.8 13.023-102.696 34.698-66.133-55.273-153.245-88.848-248.699-88.848-125.853 0-237.204 58.366-305.091 147.874-24.265-4.644-49.382-7.083-75.106-7.083-28.217 0-55.704 2.934-82.137 8.495v874.714z" />
<glyph unicode="&#xe91d;" d="M1024 960h-1024v-719.354c29.229 0.003 54.373 0.156 61.971 1.403 24.662-54.044 81.779-91.899 148.301-91.899 39.018 0 74.8 13.023 102.696 34.698 66.133-55.273 153.245-88.848 248.699-88.848 125.853 0 237.204 58.366 305.091 147.874 24.265-4.644 49.382-7.083 75.106-7.083 28.217 0 55.704 2.934 82.137 8.495v714.714z" />
<glyph unicode="&#xe91e;" horiz-adv-x="1170" d="M1170.286-61.384v1021.384h-1170.286v-783.365c30.208 6.272 61.623 9.581 93.87 9.581 29.398 0 58.105-2.75 85.836-7.988 77.586 100.951 204.844 166.78 348.676 166.78 109.090 0 208.646-37.868 284.227-100.208 31.88 24.446 72.774 39.134 117.366 39.134 76.025 0 141.301-42.695 169.487-103.648 8.683 1.406 37.419 1.579 70.824 1.582v-243.252z" />
<glyph unicode="&#xe91f;" horiz-adv-x="1170" d="M1170.286-61.743c-30.208 6.194-61.623 9.462-93.87 9.462-29.398 0-58.105-2.716-85.836-7.889-77.586 99.7-204.844 164.713-348.676 164.713-109.090 0-208.646-37.399-284.227-98.966-31.88 24.143-72.774 38.649-117.366 38.649-76.025 0-141.301-42.166-169.487-102.364-8.683 1.389-37.419 1.559-70.824 1.563v-151.127 1167.702h1170.286v-1021.743z" />
<glyph unicode="&#xe920;" glyph-name="outer-clouds" d="M1024 960h-1024v-879.354c29.229 0.003 54.373 0.156 61.971 1.403 24.662-54.044 81.779-91.899 148.301-91.899 39.018 0 74.8 13.023 102.696 34.698 66.133-55.273 153.245-88.848 248.699-88.848 125.853 0 237.204 58.366 305.091 147.874 24.265-4.644 49.382-7.083 75.106-7.083 28.217 0 55.704 2.934 82.137 8.495v874.714z" />
<glyph unicode="&#xe921;" glyph-name="inner-clouds" horiz-adv-x="1130" d="M1129.931 960h-1129.931v-996.699c32.253-0.003 59.998-0.171 68.381-1.532 27.214 59.021 90.239 100.362 163.643 100.362 43.054 0 82.538-14.223 113.319-37.893 72.974 60.363 169.098 97.031 274.426 97.031 138.872 0 261.742-63.741 336.652-161.492 26.775 5.072 54.491 7.735 82.876 7.735 31.136 0 61.467-3.204 90.633-9.277v-128.165 1129.931z" />
<glyph unicode="&#xe922;" glyph-name="curvy" horiz-adv-x="993" d="M992.97 936.343v-822.823c-39.864-58.686-87.030-103.125-171.137-103.125-59.832 0-107.726 103.125-178.67 107.663s-58.102-136.383-146.677-136.383c-88.576 0-95.167 102.77-180.455 102.77s-99.803-141.071-189.106-141.071c-89.303 0-126.924 111.46-126.924 111.46v881.51h992.97z" />
<glyph unicode="&#xe923;" d="M1024 960v-848.536c-41.109-60.52-89.75-106.348-176.485-106.348-61.702 0-111.093 106.348-184.254 111.027s-59.917-140.645-151.261-140.645c-91.344 0-98.141 105.982-186.094 105.982s-102.922-145.48-195.016-145.48c-92.094 0-130.891 114.943-130.891 114.943v909.057h1024z" />
<glyph unicode="&#xe924;" d="M1024 960v-720.536c-41.109-60.52-89.75-106.348-176.485-106.348-61.702 0-111.093 106.348-184.254 111.027s-59.917-140.645-151.261-140.645c-91.344 0-98.141 105.982-186.094 105.982s-102.922-145.48-195.016-145.48c-92.094 0-130.891 114.943-130.891 114.943v781.057h1024z" />
<glyph unicode="&#xe925;" glyph-name="angled-2" d="M1024 944h-1024v-992l1024 125.44z" />
<glyph unicode="&#xe926;" glyph-name="inner-triangle-with-offset-1" d="M0 944v-864l398.126 168.029 625.874-279.835v975.806z" />
<glyph unicode="&#xe927;" glyph-name="inner-triangle-1" d="M0 944v-975.806l512 266.556 512-266.556v975.806z" />
<glyph unicode="&#xe928;" glyph-name="outer-triangle-1" d="M0 960v-709.25l512-314.75 512 314.75v709.25z" />
<glyph unicode="&#xe929;" glyph-name="outer-triangle-with-offset-1" d="M0 960v-741.25l352-282.75 672 282.75v741.25z" />
<glyph unicode="&#xe92a;" glyph-name="rounded-outer-triangle-1" d="M0 944v-709.25l402.791-247.614c60.314-37.078 158.302-36.956 218.418 0l402.791 247.614v709.25h-1024z" />
<glyph unicode="&#xe92b;" glyph-name="zigzag-1" d="M390.095-64l-128.725 127.033-131.339-127.033-128.725 127.033-1.307 896.967h1024v-896.967l-130.032-127.033-128.725 127.033-131.339-127.033-121.905 120.302z" />
<glyph unicode="&#xe92c;" d="M592.469 36.568c156.313 149.872 318.031 49.736 431.531-95.571v1019.003h-1024v-773.561c80.5-293.121 426.177-309.311 592.469-149.872z" />
<glyph unicode="&#xe92d;" d="M431.531 36.568c-168.094 94.12-318.031 49.736-431.531-95.571v1019.003h1024v-773.561c-167.312-245.443-391.3-262.511-592.469-149.872z" />
<glyph unicode="&#xe92e;" glyph-name="opened-book-with-offset" d="M1024 960h-1024v-957.298c34.653-19.98 74.088-35.034 114.268-46.009 200.375-54.732 487.42 0 593.645 153.643 21.226-91.117 168.68-127.651 227.11-134.076 29.873-3.285 60.125-5.072 88.978-4.161v987.902z" />
<glyph unicode="&#xe92f;" glyph-name="curve" d="M0 2.373v957.627h1024v-851.921c-333.498-310.774-1024-105.706-1024-105.706z" />
<glyph unicode="&#xe930;" glyph-name="uneven-cloud" d="M1024 959.999h-1024v-1012.526c217.27-39.052 454.852 20.65 641.407 193.473 67.819 62.818 120.322 73.696 205.655 49.324 59.74-17.047 118.736-23.417 176.937-20.401v790.13z" />
<glyph unicode="&#xe931;" glyph-name="cloud" d="M1024-47.053c-48.701-11.082-99.506-16.947-151.743-16.947-263.13 0-489.599 149.142-594.21 364.197-1.105-0.011-2.212-0.017-3.32-0.017-37.321 0-73.032 6.55-105.974 18.518-44.604-52.978-102.467-95.234-168.752-122.102v763.404h1024v-1007.053z" />
<glyph unicode="&#xe932;" glyph-name="opened-book" d="M0 42.354c64.021-65.884 150.818-106.354 246.398-106.354 104.681 0 198.824 48.544 264.052 125.855 65.229-77.311 159.372-125.855 264.052-125.855 97.132 0 185.192 41.795 249.498 109.585v914.415h-1024v-917.646z" />
<glyph unicode="&#xe933;" glyph-name="rounded-rectangle" d="M1024 40.473l-12.529-21.962c-29.158-51.084-82.951-82.511-141.191-82.511h-720.187c-58.233 0-112.011 31.427-141.195 82.511l-8.898 21.962v919.527h1024v-919.527z" />
<glyph unicode="&#xe934;" glyph-name="bubble-outer" d="M1024 960v0-800c-124.621 25.162-236.642 83.934-325.672 166.171-56.851-15.215-116.708-23.34-178.509-23.34-109.002 0-211.955 25.276-303.041 70.149-59.893-81.644-133.201-153.277-216.778-211.83v798.85h1024zM352-64c-53.019 0-96 42.981-96 96s42.981 96 96 96c53.019 0 96-42.981 96-96s-42.981-96-96-96z" />
<glyph unicode="&#xe935;" glyph-name="bubble-inner" d="M0 960h1024v-1024c-124.621 25.162-236.642 83.934-325.672 166.171-56.851-15.215-116.708-23.34-178.509-23.34-109.002 0-211.955 25.276-303.041 70.149-59.893-81.644-133.201-153.277-216.778-211.83v1022.85zM352 256c53.019 0 96 42.981 96 96s-42.981 96-96 96c-53.019 0-96-42.981-96-96s42.981-96 96-96z" />
<glyph unicode="&#xe936;" glyph-name="angled-1" d="M1024 944h-1024v-992l1024 221.44z" />
</font>
</defs>
</svg>
